<?xml version="1.0" standalone="no"?>
<!DOCTYPE svg PUBLIC "-//W3C//DTD SVG 1.1//EN" "http://www.w3.org/Graphics/SVG/1.1/DTD/svg11.dtd" >
<svg xmlns="http://www.w3.org/2000/svg">
<metadata></metadata>
<defs>
<font id="font" horiz-adv-x="651" >
<font-face units-per-em="2048" ascent="1638" descent="-410" />
<missing-glyph horiz-adv-x="323" />
<glyph horiz-adv-x="0" />
<glyph horiz-adv-x="682" />
<glyph horiz-adv-x="743" d="M238 1505q0 55 40.5 96t96.5 41q55 0 96 -40.5t41 -96.5q0 -55 -41 -96t-96 -41t-96 41t-41 96zM281 1505q0 -39 27.5 -66.5t66.5 -27.5t66.5 27.5t27.5 66.5t-27.5 66.5t-66.5 27.5t-66.5 -27.5t-27.5 -66.5z" />
<glyph unicode="&#xd;" horiz-adv-x="323" />
<glyph unicode=" "  horiz-adv-x="323" />
<glyph unicode="&#x09;" horiz-adv-x="323" />
<glyph unicode="&#xa0;" horiz-adv-x="323" />
<glyph unicode="!" horiz-adv-x="337" d="M35 1612h268l-72 -1237h-122zM47 0v264h246v-264h-246z" />
<glyph unicode="&#x22;" horiz-adv-x="612" d="M43 1612h238l-60 -471h-119zM338 1612h235l-57 -471h-121z" />
<glyph unicode="#" horiz-adv-x="856" d="M6 477l10 121h125l27 393h-127l10 117h125l27 379h198l-26 -379h137l27 379h198l-26 -379h131l-8 -117h-132l-26 -393h131l-8 -121h-131l-25 -354h-199l25 354h-139l-25 -354h-196l24 354h-127zM338 598h139l27 393h-139z" />
<glyph unicode="$" d="M35 1246.5q0 27.5 1 51t1 39.5q4 113 57 182.5t176 86.5v139h99v-135q55 -4 100 -22.5t77 -54.5t48 -93.5t16 -139.5v-190h-233v207q0 51 -11.5 77.5t-43.5 26.5q-35 0 -44.5 -30.5t-9.5 -81.5v-119q0 -57 27 -101.5t61 -89.5q57 -78 111.5 -152.5t101.5 -154.5 q29 -51 37 -95t10 -108q2 -47 1 -110.5t-5 -116.5q-6 -106 -68.5 -174t-174.5 -80v-151h-99v153q-104 12 -168.5 76t-64.5 186v258h233v-241q0 -51 10.5 -71.5t43.5 -20.5q57 0 57 90v145q0 51 -7 92t-26 70q-25 37 -55.5 80t-63 86t-62.5 84t-50 74q-23 33 -37 58t-23.5 49 t-13.5 50.5t-6 63.5q0 25 -1 52.5t-1 55z" />
<glyph unicode="%" horiz-adv-x="1054" d="M35 1108v278q0 109 50 167.5t167 58.5q104 0 160.5 -53.5t56.5 -169.5v-283q0 -117 -56.5 -169t-160.5 -52q-117 0 -167 57t-50 166zM160 0l588 1612h143l-588 -1612h-143zM203 1098q0 -66 49 -66q47 0 47 64v303q0 63 -47 63q-49 0 -49 -65v-299zM586 227v279 q0 109 50 166t167 57q104 0 161.5 -52t57.5 -169v-283q0 -117 -57.5 -169t-161.5 -52q-117 0 -167 57.5t-50 165.5zM754 217q0 -66 51 -65q45 0 45 63v303q0 63 -45 64q-51 0 -51 -66v-299z" />
<glyph unicode="&#x26;" horiz-adv-x="851" d="M2 367q0 127 62.5 255t191.5 248q-47 92 -83 187.5t-36 193.5q0 35 5 69t18 69q29 76 102.5 126t161.5 50q129 0 208 -65.5t85 -199.5q6 -139 -56.5 -255.5t-164.5 -208.5l166 -371l51 88l147 -147l-112 -142q14 -23 35.5 -39t56.5 -20v-215q-94 0 -152.5 26.5 t-83.5 89.5h-2q-55 -68 -123.5 -97t-140.5 -29q-92 0 -170 44t-115 119q-51 104 -51 224zM238 379q0 -57 20 -109q31 -80 109 -80q35 0 71.5 19.5t71.5 60.5l-170 379h-2q-57 -80 -78.5 -146.5t-21.5 -123.5zM352 1264q4 -47 21.5 -105.5t46.5 -124.5h2q35 59 58.5 113.5 t29.5 112.5q4 45 -18.5 78.5t-59.5 33.5q-41 0 -63.5 -27.5t-16.5 -80.5z" />
<glyph unicode="'" horiz-adv-x="319" d="M43 1612h238l-60 -471h-119z" />
<glyph unicode="(" horiz-adv-x="391" d="M47 227v1014q0 180 94.5 281.5t243.5 126.5v-150q-59 -16 -89 -70.5t-30 -132.5v-1124q0 -78 30 -132t89 -69v-151q-150 27 -244 128t-94 279z" />
<glyph unicode=")" horiz-adv-x="401" d="M8 -29q59 14 89 68.5t30 132.5v1124q0 78 -29.5 132.5t-89.5 70.5v150q150 -25 244 -126.5t94 -281.5v-1014q0 -178 -94 -279.5t-244 -127.5v151z" />
<glyph unicode="*" horiz-adv-x="612" d="M0 1337l41 131l197 -69l-9 213h140l-9 -209l201 72l45 -129l-200 -58l131 -168l-111 -82l-119 170l-119 -174l-110 80l127 164z" />
<glyph unicode="+" horiz-adv-x="729" d="M90 733v68h246v270h74v-270h247v-68h-247v-270h-74v270h-246z" />
<glyph unicode="," horiz-adv-x="337" d="M43 0v264h246v-241q0 -61 -28 -121t-73 -109h-139q49 43 81 96.5t32 110.5h-119z" />
<glyph unicode="-" horiz-adv-x="444" d="M47 565v209h350v-209h-350z" />
<glyph unicode="." horiz-adv-x="337" d="M47 0v264h246v-264h-246z" />
<glyph unicode="/" horiz-adv-x="483" d="M0 0l322 1612h161l-321 -1612h-162z" />
<glyph unicode="0" horiz-adv-x="673" d="M47 309v973q0 61 16.5 116.5t52.5 95.5t90 63.5t130 23.5q141 0 216 -68.5t75 -228.5v-975q0 -150 -78 -241t-213 -91q-68 0 -121 15.5t-90 53.5t-57.5 102.5t-20.5 160.5zM283 264q0 -94 55 -94q53 0 53 94v1039q0 47 -12 66.5t-41 19.5q-55 0 -55 -89v-1036z" />
<glyph unicode="1" horiz-adv-x="471" d="M23 1094v270l200 201h197v-1565h-234v1282h-4z" />
<glyph unicode="2" horiz-adv-x="679" d="M47 0v225q68 152 120 275t92 219t68.5 170t47.5 127q14 41 20 72.5t6 72.5v121q0 51 -12 81t-47 30t-50.5 -30t-15.5 -81v-205h-229v207q0 82 25.5 138.5t67.5 92t97.5 52t116.5 16.5q129 2 206 -79t81 -216q0 -33 -1 -61.5t-3 -75.5q-4 -98 -47 -209q-80 -193 -157 -374 t-152 -355h356v-213h-590z" />
<glyph unicode="3" horiz-adv-x="681" d="M47 252v297h223v-281q0 -51 12.5 -73.5t47.5 -22.5q66 0 65 104v404q0 41 -32.5 54.5t-110.5 6.5v181q78 -10 110.5 9t32.5 70v281q0 51 -10 77.5t-45 26.5t-49.5 -28.5t-14.5 -75.5v-209h-229v211q0 133 78 214t217 79q141 -2 214 -78t73 -211v-50t-1 -73t-2 -76.5 t-1 -62.5q-4 -78 -35 -124t-90 -68v-5q51 -6 89 -48t42 -97q4 -41 5 -104.5t0 -128t-2 -122t-3 -85.5q-4 -59 -26.5 -107.5t-61.5 -82.5t-89.5 -52t-107.5 -18q-61 0 -115.5 14t-95.5 47t-64.5 84t-23.5 123z" />
<glyph unicode="4" horiz-adv-x="684" d="M29 264v258l280 1043h264v-1094h82v-207h-82v-264h-233v264h-311zM156 471h190v713h-2z" />
<glyph unicode="5" horiz-adv-x="661" d="M35 256v293h229v-285q0 -53 14.5 -73.5t45.5 -20.5q29 0 43 27.5t14 68.5v535q0 102 -68 102q-35 0 -52 -24.5t-21 -83.5h-187l33 770h514v-209h-330l-22 -322h4q27 31 67.5 48.5t88.5 13.5q43 0 79 -15q55 -23 92 -80t37 -129v-585q0 -61 -20.5 -117.5t-59 -98.5 t-92 -66.5t-120.5 -24.5q-135 0 -212 64.5t-77 211.5z" />
<glyph unicode="6" horiz-adv-x="679" d="M49 256v1032q0 133 79 212t226 77q137 -2 209 -76t72 -207v-139h-232v131q0 47 -11 75t-48 28q-33 0 -44 -27t-11 -78v-317h4q51 63 139 63q20 0 41 -3t41 -13q55 -23 86 -74t31 -119v-557q0 -125 -79 -204.5t-214 -79.5q-133 0 -211 70.5t-78 205.5zM283 264 q0 -47 12 -69.5t43 -22.5q59 0 59 94v479q0 51 -9 80t-44 29t-48 -27.5t-13 -87.5v-475z" />
<glyph unicode="7" horiz-adv-x="659" d="M16 1356v209h621v-197l-326 -1368h-233l323 1356h-385z" />
<glyph unicode="8" horiz-adv-x="671" d="M45 256v444q0 84 41 142.5t109 72.5v5q-61 20 -97.5 59t-40.5 98q-4 57 -5 124t3 116q8 119 76 190.5t209 71.5q262 0 276 -244q2 -23 2 -55.5t-1 -68t-3 -69.5t-4 -57q-18 -133 -143 -163v-2q27 -4 55.5 -17.5t52 -38t38 -62.5t14.5 -93v-445q0 -125 -79 -204.5 t-214 -79.5q-133 0 -211 70.5t-78 205.5zM279 256q0 -45 11 -65.5t42 -20.5q61 0 61 88v463q0 51 -11 74.5t-44 23.5t-46 -23.5t-13 -76.5v-463zM279 1071q0 -33 11 -54.5t42 -21.5q33 0 46 21.5t13 52.5v242q0 35 -11 57.5t-44 22.5q-31 0 -44 -22.5t-13 -59.5v-238z" />
<glyph unicode="9" horiz-adv-x="677" d="M45 264v144h231v-136q0 -47 11.5 -74.5t46.5 -27.5t45 26.5t10 77.5v318h-2q-23 -29 -57.5 -45.5t-73.5 -18.5q-43 -2 -92 17q-55 23 -86 74t-31 118v557q0 125 79 205t214 80t213 -70.5t78 -205.5v-1033q0 -135 -80 -212.5t-225 -75.5q-139 2 -210 75.5t-71 206.5z M283 813q0 -51 8 -79.5t43 -28.5t48 27.5t13 86.5v475q0 47 -12 69.5t-43 22.5q-57 0 -57 -94v-479z" />
<glyph unicode=":" horiz-adv-x="339" d="M47 0v264h246v-264h-246zM47 940v264h246v-264h-246z" />
<glyph unicode=";" horiz-adv-x="337" d="M47 0v264h246v-241q0 -61 -27.5 -121t-75.5 -109h-137q47 43 79 96.5t32 110.5h-117zM47 940v264h246v-264h-246z" />
<glyph unicode="&#x3c;" horiz-adv-x="835" d="M135 731v82l567 256v-74l-491 -223l491 -225v-74z" />
<glyph unicode="=" horiz-adv-x="915" d="M145 633v65h643v-65h-643zM145 842v65h643v-65h-643z" />
<glyph unicode="&#x3e;" horiz-adv-x="835" d="M182 471v74l494 225l-494 223v74l568 -256v-82z" />
<glyph unicode="?" d="M23 1196v135q0 82 24.5 139.5t65.5 92t96 51t115 16.5q129 0 202.5 -80t73.5 -217v-78q0 -49 -11 -103t-38 -105q-29 -55 -64.5 -130t-76.5 -155q-16 -31 -24.5 -72t-10.5 -82l-13 -233h-129v391q0 80 35 164t76 186q16 39 20.5 70t4.5 78v71q0 51 -11.5 81t-46.5 30 t-48 -30t-13 -81v-139h-227zM180 0v264h246v-264h-246z" />
<glyph unicode="@" horiz-adv-x="946" d="M37 645q0 139 33.5 260t92 210t137.5 139.5t169 50.5t169 -50.5t137.5 -138.5t92 -209t33.5 -262q0 -53 -6 -109.5t-16.5 -106.5t-27.5 -89t-38 -57q-14 -10 -44 -12.5t-46 -2.5h-100h-131v62h-3q-12 -27 -34.5 -48.5t-69.5 -21.5q-53 2 -70.5 28.5t-21.5 73.5 q-4 68 -2 132.5t6 123.5q4 39 23.5 60.5t52.5 38.5q41 20 78.5 41.5t37.5 50.5v102q0 33 -26 33q-16 0 -26.5 -10t-10.5 -23l-2 -88l-125 -18v57q0 184 166 185q78 0 118 -32t40 -104v-581h44.5h47t41 2t24.5 8q12 10 23.5 43t19.5 77t13.5 93t5.5 92q0 125 -29 233.5 t-80 190.5t-118.5 129t-145.5 47t-145.5 -47t-118.5 -129t-80 -190.5t-29 -233.5t29 -234.5t80 -190.5t118.5 -128t145.5 -47q100 0 186 80l39 -45q-100 -94 -225 -94q-90 0 -169 50t-137.5 139t-92 209t-33.5 261zM426 408q0 -23 10 -30t23 -7q31 0 30 41v295 q0 -8 -15 -19.5t-25 -25.5q-10 -10 -16.5 -19.5t-6.5 -28.5v-206z" />
<glyph unicode="A" horiz-adv-x="741" d="M4 0l199 1612h370l164 -1612h-264l-10 197h-182l-15 -197h-262zM307 383h131l-49 993h-2z" />
<glyph unicode="B" horiz-adv-x="751" d="M47 0v1612h410q117 0 176 -57.5t59 -163.5q0 -55 1 -121v-43q0 -42 -1 -78q-2 -66 -17.5 -108t-42 -67.5t-66.5 -36.5t-91 -15v-4q127 -8 178.5 -58.5t53.5 -157.5q2 -104 3 -194v-62q0 -63 -1 -133q-4 -158 -63.5 -235.5t-207.5 -77.5h-391zM301 195h68q27 0 50 17 t27 64q4 29 4.5 98.5t0.5 147.5v144.5t-5 89.5q-4 33 -26.5 48t-50.5 15h-68v-624zM301 1012h68q27 0 46 18.5t23 63.5q4 27 4 60.5v68.5v76.5t-4 58.5q-4 35 -24.5 45t-48.5 10h-64v-401z" />
<glyph unicode="C" horiz-adv-x="749" d="M47 319v971q0 156 88 249t242 93q76 0 137 -15t104.5 -54t66 -105.5t22.5 -167.5v-213h-248v248q0 106 -78 107q-78 0 -78 -107v-1042q0 -106 78 -107q78 0 78 107v254h248v-218q0 -78 -22.5 -140t-66 -107t-104.5 -70t-137 -25t-137.5 16.5t-104.5 55.5t-65.5 104.5 t-22.5 165.5z" />
<glyph unicode="D" horiz-adv-x="747" d="M47 0v1612h385q147 0 207.5 -79t60.5 -235v-985q0 -158 -60 -235.5t-208 -77.5h-385zM299 195h68q25 0 50 17t25 64v1076q0 33 -24.5 48t-50.5 15h-68v-1220z" />
<glyph unicode="E" horiz-adv-x="661" d="M47 0v1612h576v-213h-318v-408h318v-205h-318v-581h318v-205h-576z" />
<glyph unicode="F" horiz-adv-x="649" d="M47 0v1612h576v-213h-318v-408h318v-205h-318v-786h-258z" />
<glyph unicode="G" horiz-adv-x="759" d="M47 319v971q0 78 24.5 141.5t68.5 107.5t105.5 68.5t135.5 24.5q76 0 137.5 -15t105.5 -54t68.5 -105.5t24.5 -167.5v-164h-248v199q0 53 -19.5 83t-62.5 30q-47 0 -66.5 -31t-19.5 -84v-1040q0 -113 80 -113q39 0 63.5 30.5t24.5 82.5v376h-88v201h336v-541 q0 -78 -23.5 -140t-66.5 -107t-104.5 -70t-137.5 -25q-158 0 -248 78t-90 264z" />
<glyph unicode="H" horiz-adv-x="737" d="M47 0v1612h258v-592h127v592h260v-1612h-260v809h-127v-809h-258z" />
<glyph unicode="I" horiz-adv-x="352" d="M47 0v1612h260v-1612h-260z" />
<glyph unicode="J" horiz-adv-x="512" d="M10 -8v221q41 -29 86 -29q39 0 64 15q23 16 33 46.5t10 98.5v1268h258v-1266q0 -104 -18.5 -182t-84.5 -127q-51 -39 -103 -53q-46 -13 -89 -13h-12q-39 0 -74 5.5t-70 15.5z" />
<glyph unicode="K" horiz-adv-x="761" d="M47 0v1612h256v-707h4l174 707h260l-200 -701l194 -911h-268l-160 831h-4v-831h-256z" />
<glyph unicode="L" horiz-adv-x="645" d="M51 0v1612h260v-1401h310v-211h-570z" />
<glyph unicode="M" horiz-adv-x="991" d="M47 0v1612h260l189 -946h4l186 946h258v-1612h-244v872h-2l-170 -872h-71l-166 868h-2v-868h-242z" />
<glyph unicode="N" horiz-adv-x="741" d="M47 0v1612h221l176 -846h5v846h247v-1612h-229l-172 811h-4v-811h-244z" />
<glyph unicode="O" horiz-adv-x="763" d="M47 319v971q0 156 90 249t244 93q78 0 140.5 -15t105.5 -54t66.5 -105.5t23.5 -167.5v-971q0 -154 -90 -248t-246 -94q-78 0 -139.5 16.5t-104.5 55.5t-66.5 104.5t-23.5 165.5zM307 283q0 -106 78 -107q78 0 78 107v1042q0 106 -78 107q-78 0 -78 -107v-1042z" />
<glyph unicode="P" horiz-adv-x="745" d="M47 0v1612h414q117 0 185.5 -57.5t68.5 -163.5v-381q0 -53 -21.5 -96.5t-56.5 -74t-78 -47t-86 -16.5h-166v-776h-260zM307 969h55q43 0 72 27.5t29 72.5v254q0 45 -26.5 65.5t-67.5 20.5h-62v-440z" />
<glyph unicode="Q" horiz-adv-x="763" d="M47 319v971q0 156 90 249t244 93q78 0 140.5 -15t105.5 -54t66.5 -105.5t23.5 -167.5v-971q0 -174 -111 -266l88 -149l-172 -107l-102 183q-10 -2 -19.5 -2.5t-19.5 -0.5q-78 0 -139.5 16.5t-104.5 55.5t-66.5 104.5t-23.5 165.5zM307 283q0 -106 78 -107q78 0 78 107 v737v305q0 106 -78 107q-78 0 -78 -107v-305v-737z" />
<glyph unicode="R" horiz-adv-x="743" d="M47 0v1612h410q115 0 181.5 -57.5t66.5 -163.5v-338q0 -80 -39 -147.5t-113 -80.5l184 -825h-268l-168 846h-2v-846h-252zM299 969h57q41 0 64.5 27.5t23.5 72.5v266q0 86 -82 86h-63v-452z" />
<glyph unicode="S" horiz-adv-x="731" d="M27 276v236h247v-240q0 -53 24 -79.5t62 -26.5q41 0 61.5 28.5t22.5 75.5q2 44 2 81.5t-2 68.5q-4 63 -30 115q-23 41 -60 89t-77.5 97t-79.5 93t-64 79q-49 66 -70.5 124t-25.5 132q-1 24 -1 48.5t1 49.5q2 49 4 84q8 129 88 215t240 86q74 0 135 -16.5t104 -56 t66.5 -105t23.5 -164.5v-207h-247v242q0 106 -80 107q-80 0 -80 -107v-123q0 -68 23.5 -106.5t41.5 -61.5q8 -12 43 -53t79 -94t87 -109.5t72 -99.5q12 -18 23.5 -43t20.5 -52.5t15 -53t9 -46.5q3 -33 3 -73q0 -20 -1 -42q-2 -66 -13 -124q-20 -129 -103 -198t-235 -69 q-154 0 -241.5 72t-87.5 227z" />
<glyph unicode="T" horiz-adv-x="655" d="M20 1395v217h617v-217h-180v-1395h-260v1395h-177z" />
<glyph unicode="U" horiz-adv-x="751" d="M47 262v1350h254v-1348q0 -43 16.5 -68.5t59.5 -25.5q41 0 58.5 26.5t17.5 67.5v1348h252v-1336q0 -78 -25 -134t-68 -95t-102 -57.5t-129 -18.5q-158 0 -246 72t-88 219z" />
<glyph unicode="V" horiz-adv-x="749" d="M4 1612h277l88 -1163h2l118 1163h256l-247 -1612h-267z" />
<glyph unicode="W" horiz-adv-x="1110" d="M4 1612h264l72 -1057h4l119 1057h190l109 -1057h4l78 1057h262l-232 -1612h-200l-119 958h-4l-137 -958h-203z" />
<glyph unicode="X" horiz-adv-x="759" d="M8 0l221 879l-200 733h276l78 -438h4l76 438h270l-219 -738l238 -874h-277l-106 524h-4l-86 -524h-271z" />
<glyph unicode="Y" horiz-adv-x="751" d="M2 1612h270l99 -574h4l106 574h271l-254 -907v-705h-258v705z" />
<glyph unicode="Z" horiz-adv-x="659" d="M12 0v205l371 1194h-332v213h596v-203l-377 -1206h344v-203h-602z" />
<glyph unicode="[" horiz-adv-x="393" d="M47 -172v1806h330v-151h-113v-1506h113v-149h-330z" />
<glyph unicode="\" horiz-adv-x="483" d="M0 1612h162l321 -1612h-161z" />
<glyph unicode="]" horiz-adv-x="393" d="M16 -23h111v1504h-111v151h330v-1806h-330v151z" />
<glyph unicode="^" horiz-adv-x="663" d="M6 1470l326 228l325 -228l-51 -86l-274 115l-275 -115z" />
<glyph unicode="_" horiz-adv-x="647" d="M0 -256h647v-61h-647v61z" />
<glyph unicode="`" horiz-adv-x="663" d="M123 1538l100 176l322 -246l-51 -86z" />
<glyph unicode="a" horiz-adv-x="649" d="M37 385.5q0 108.5 8 208.5q4 66 41 101.5t90 64.5q33 16 68 33.5t64.5 37t48 40t18.5 44.5v175q0 57 -49 57q-27 0 -44.5 -16.5t-17.5 -43.5l-2 -147l-211 -31v99q0 160 68.5 235.5t216.5 75.5q127 0 194.5 -53.5t67.5 -175.5v-1090h-221v106h-2q-12 -23 -25.5 -44 t-34 -37.5t-49 -26.5t-69.5 -10q-86 2 -119 48t-37 124q-4 117 -4 225.5zM264 240q0 -39 17.5 -51.5t37.5 -12.5q23 0 39.5 18.5t16.5 49.5v497q-2 -12 -25.5 -31.5t-42.5 -37.5q-18 -18 -29.5 -38t-11.5 -46z" />
<glyph unicode="b" horiz-adv-x="649" d="M47 0v1612h223v-420h2q29 47 68 84t104 37q49 0 81 -14.5t49.5 -39t23.5 -56.5t6 -64v-967q0 -72 -43 -126t-117 -58h-12q-114 0 -164 114h-4v-102h-217zM268 262q0 -86 51 -86q23 0 38.5 22.5t15.5 59.5v782q0 41 -13.5 60.5t-35.5 19.5q-25 0 -40.5 -26.5t-15.5 -61.5 v-770z" />
<glyph unicode="c" horiz-adv-x="655" d="M47 270v779q0 51 19.5 99t55.5 86t88 61.5t118 23.5q131 0 206.5 -63.5t75.5 -194.5v-193h-225v189q0 47 -12.5 67.5t-42.5 20.5q-59 0 -60 -88v-817q0 -88 56 -88q59 0 59 86v235h225v-199q0 -139 -75.5 -214.5t-206.5 -75.5t-206 65.5t-75 220.5z" />
<glyph unicode="d" horiz-adv-x="649" d="M47 143v961q0 39 8 77t28.5 67.5t54.5 47t83 17.5q61 0 97 -36t59 -85h4v420h223v-1612h-219v102h-4q-25 -53 -67 -84.5t-95 -31.5q-74 0 -123 35.5t-49 121.5zM276 264q0 -82 46 -82q27 0 43 20.5t16 65.5v785q0 35 -15.5 52t-39.5 17q-23 0 -36.5 -20.5t-13.5 -61.5 v-776z" />
<glyph unicode="e" horiz-adv-x="649" d="M47 264v780q0 115 73 192t204 77t206.5 -61.5t75.5 -194.5v-422h-336v-406q0 -77 55 -77h1q59 0 59 86v196h221v-160q0 -139 -70.5 -218t-211.5 -79q-131 0 -204 66t-73 221zM270 799h115v258q0 43 -10 62.5t-45 19.5q-59 0 -60 -82v-258z" />
<glyph unicode="f" horiz-adv-x="399" d="M2 1141v149h76v103q0 123 59.5 173t181.5 50q18 0 37 -1t39 -3v-199q-25 6 -41 6q-31 -2 -41 -19.5t-10 -45.5v-64h92v-149h-90v-1141h-227v1141h-76z" />
<glyph unicode="g" horiz-adv-x="655" d="M41 -2h235q0 -47 48 -47h8q51 4 51 59v178h-2q-23 -51 -66 -88t-96 -37q-74 0 -121 40t-47 128v873q0 39 8.5 77t29 66.5t54 46t84.5 17.5q59 0 100.5 -37t61.5 -96h4v112h217v-1229q0 -119 -69.5 -194.5t-216.5 -75.5q-129 0 -206 49t-77 158zM283 328q0 -82 43 -82 q29 0 45 21.5t16 64.5v708q0 72 -53 72q-23 0 -37 -20.5t-14 -61.5v-702z" />
<glyph unicode="h" horiz-adv-x="643" d="M47 0v1612h223v-434h4q29 61 66 98t102 37q86 0 121 -44t35 -145v-1124h-223v1040q0 41 -13.5 56.5t-35.5 15.5q-29 0 -42.5 -22.5t-13.5 -57.5v-1032h-223z" />
<glyph unicode="i" horiz-adv-x="319" d="M47 0v1290h225v-1290h-225zM47 1374v238h225v-238h-225z" />
<glyph unicode="j" horiz-adv-x="321" d="M-10 -18h33q27 0 26 22v1286h227v-1300q0 -98 -46 -150.5t-140 -52.5h-100v195zM49 1372v240h227v-240h-227z" />
<glyph unicode="k" horiz-adv-x="630" d="M47 0v1612h223v-864h4l115 542h223l-139 -612l152 -678h-244l-109 573h-2v-573h-223z" />
<glyph unicode="l" horiz-adv-x="319" d="M47 0v1612h225v-1612h-225z" />
<glyph unicode="m" horiz-adv-x="985" d="M47 0v1290h223v-112h4q29 61 69 98t106 37q74 0 109.5 -35t41.5 -100h4q25 61 64 98t104 37q86 0 125 -44t39 -147v-1122h-227v1053q0 33 -10.5 47t-39.5 14q-27 0 -41 -23.5t-14 -58.5v-1032h-225v1057q0 27 -15.5 41t-37.5 14q-27 0 -40.5 -28.5t-13.5 -63.5v-1020 h-225z" />
<glyph unicode="n" horiz-adv-x="643" d="M47 0v1292h223v-114h4q29 61 66 98t102 37q86 0 121 -44t35 -147v-1122h-223v1040q0 41 -13.5 56.5t-35.5 15.5q-29 0 -42.5 -22.5t-13.5 -57.5v-1032h-223z" />
<glyph unicode="o" horiz-adv-x="655" d="M47 270v779q0 51 19.5 99t55.5 86t88 61.5t118 23.5q131 0 206.5 -63.5t75.5 -194.5v-787q0 -139 -75.5 -214.5t-206.5 -75.5t-206 65.5t-75 220.5zM270 240q0 -88 56 -88q59 0 59 86v819q0 86 -59 86q-55 0 -56 -86v-817z" />
<glyph unicode="p" horiz-adv-x="647" d="M47 -209v1499h217v-108h4q25 57 72 92t100 35q160 0 160 -170v-936q0 -43 -9 -84t-29.5 -72t-53.5 -50.5t-80 -19.5q-61 0 -97 35t-59 86h-2v-307h-223zM268 240q0 -66 51 -66q23 0 38.5 17.5t15.5 58.5v778q0 39 -12.5 61.5t-34.5 22.5q-57 0 -58 -90v-782z" />
<glyph unicode="q" horiz-adv-x="647" d="M47 203v936q0 170 160 170q53 0 99 -35t73 -92h2v108h219v-1499h-223v307h-2q-23 -51 -58.5 -86t-97.5 -35q-47 0 -80 19.5t-53 50.5t-29.5 72t-9.5 84zM274 250q0 -41 15.5 -58.5t38.5 -17.5q51 0 51 66v782q0 90 -57 90q-25 0 -36.5 -22.5t-11.5 -61.5v-778z" />
<glyph unicode="r" horiz-adv-x="442" d="M47 0v1290h205l-2 -217h4q14 61 29.5 105.5t34 72t42.5 41.5q21 12 51 11h9v-349h-18q-64 0 -96 -26q-36 -30 -36 -86v-842h-223z" />
<glyph unicode="s" horiz-adv-x="628" d="M32 1006q1 36 3 63q8 111 76.5 177.5t199.5 66.5q61 0 111.5 -13.5t87.5 -46t56.5 -85t19.5 -130.5v-147h-217v178q0 41 -12.5 61.5t-43.5 20.5q-27 0 -42 -29.5t-19 -70.5q-2 -14 -2 -40t2 -44q4 -59 24.5 -88t36.5 -50q53 -66 111.5 -127t105.5 -129q35 -51 47.5 -101 t16.5 -83q4 -41 4 -94t-8 -100q-16 -104 -84 -159.5t-195 -55.5t-198.5 62t-71.5 179v219h219v-221q0 -41 15.5 -57.5t39.5 -16.5q27 0 43.5 19.5t16.5 52.5v119q0 23 -9.5 52.5t-21.5 47.5q-23 35 -53.5 70t-63 69.5t-65.5 69.5t-60 72q-39 53 -53 99t-16 106q-1 33 -1 59 v25z" />
<glyph unicode="t" horiz-adv-x="395" d="M0 1141v149h76v254h225v-254h74v-149h-74v-895q0 -41 13.5 -58.5t60.5 -5.5v-186q-31 -4 -58.5 -4h-52.5q-96 4 -144 44t-48 150l4 955h-76z" />
<glyph unicode="u" horiz-adv-x="643" d="M47 168v1122h223v-1044q0 -41 15.5 -56.5t38.5 -15.5q27 0 39 24.5t12 59.5v1032h221v-1292h-221v104h-2q-23 -57 -64 -87.5t-94 -30.5q-86 0 -127 42t-41 142z" />
<glyph unicode="v" horiz-adv-x="630" d="M4 1290h236l67 -889h2l80 889h236l-211 -1290h-228z" />
<glyph unicode="w" horiz-adv-x="1083" d="M4 1290h229l91 -882h2l108 882h55h111h59l89 -882h4l102 882h227l-217 -1290h-209l-112 885h-4l-131 -885h-205z" />
<glyph unicode="x" horiz-adv-x="620" d="M4 0l193 705l-187 585h242l61 -332h4l72 332h229l-186 -585l184 -705h-235l-68 410h-4l-82 -410h-223z" />
<glyph unicode="y" horiz-adv-x="624" d="M4 1290h236l71 -872h2l84 872h228l-230 -1364q-10 -68 -54 -101.5t-136 -33.5h-117v180h35q49 0 63.5 21.5t10.5 44.5z" />
<glyph unicode="z" horiz-adv-x="524" d="M16 0v182l267 930h-254v178h479v-166l-272 -948h260v-176h-480z" />
<glyph unicode="{" horiz-adv-x="768" d="M102 641v184q27 0 51.5 15.5t45 37t35 45t24.5 42.5q10 20 17.5 41.5t10.5 50t4 67.5t1 95q0 72 2 121t6 82.5t13.5 58t21.5 47.5q33 55 84 86q39 23 80 30t118 7h70v-176q-59 0 -95 -6.5t-55.5 -25t-25.5 -49t-6 -79.5q0 -80 -1 -137.5t-5 -100.5t-11.5 -73.5 t-19.5 -57.5q-14 -33 -26.5 -63.5t-28 -58t-36 -51t-52.5 -40.5q31 -16 52 -39.5t36.5 -51.5t28 -58.5t26.5 -63.5q12 -27 19.5 -57.5t11.5 -73.5t5 -100.5t1 -136.5q0 -49 6 -80t25.5 -49.5t55.5 -24.5t95 -6v-176h-70q-78 0 -118.5 7t-79.5 30q-51 31 -84 86 q-12 23 -21.5 47t-13.5 58t-6 83t-2 121q0 55 -1 94t-4 67.5t-10.5 49t-17.5 43.5q-10 18 -25.5 41.5t-36 45t-44 37t-50.5 15.5z" />
<glyph unicode="|" horiz-adv-x="382" d="M57 0v1649h260v-1649h-260z" />
<glyph unicode="}" horiz-adv-x="768" d="M84 -8q59 0 95 6t55.5 24.5t25.5 49t6 80.5q0 80 1 137t5 100t11.5 74t19.5 57q14 33 26.5 63.5t28 58.5t37 51.5t51.5 39.5q-33 16 -54 40t-36.5 51.5t-27 58t-25.5 63.5q-12 27 -19.5 57.5t-11.5 73.5t-5 100.5t-1 137.5q0 49 -6 79.5t-25.5 49t-55.5 25t-95 6.5v176 h70q78 0 118.5 -7.5t79.5 -29.5q51 -31 84 -86q12 -23 21.5 -47.5t13.5 -58t6 -83t2 -120.5q0 -55 1 -94.5t4 -68t10.5 -50t17.5 -41.5q8 -18 23.5 -42t36 -45.5t44 -37t52.5 -15.5v-184q-27 0 -50.5 -15.5t-44 -37t-37 -45t-24.5 -41.5q-10 -23 -17.5 -43.5t-10.5 -49 t-4 -67.5t-1 -94q0 -72 -2 -121t-6 -83t-13 -58.5t-22 -46.5q-33 -55 -84 -86q-39 -23 -80 -30t-118 -7h-70v176z" />
<glyph unicode="~" horiz-adv-x="743" d="M129 1583q33 10 58.5 20.5t58.5 20.5q20 6 41 6q49 0 92 -19.5t80 -19.5q17 0 33 6q23 8 42 16.5t48 18.5l39 -149q-66 -27 -117 -39q-16 -4 -25 -4q-41 0 -83 21.5t-85 21.5q-10 0 -21 -2t-30 -11q-25 -10 -42 -16t-50 -18z" />
<glyph unicode="&#xa1;" horiz-adv-x="337" d="M35 -178l74 1143h122l72 -1143h-268zM47 1077v262h246v-262h-246z" />
<glyph unicode="&#xa2;" horiz-adv-x="655" d="M47 430v778q0 45 15.5 89t46 80t73.5 61.5t99 36.5v124h92v-124q111 -10 174 -73t63 -181v-193h-225v186q0 47 -12.5 69t-42.5 22q-33 0 -46.5 -25t-13.5 -66v-817q0 -88 56 -88q59 0 59 86v236h225v-199q0 -125 -63.5 -199.5t-173.5 -87.5v-178h-92v176 q-111 10 -172.5 78t-61.5 209z" />
<glyph unicode="&#xa3;" horiz-adv-x="659" d="M20 754v106h91q-10 33 -18.5 59.5t-14.5 47.5q-12 37 -20.5 80t-10.5 92q-2 47 -2 98t2 86q4 141 86 215t205 74q131 0 211 -77t80 -251v-151h-234v184q0 51 -12 78.5t-45 27.5t-44 -31.5t-11 -82.5v-119q0 -59 18 -146q8 -39 21.5 -86t27.5 -98h221v-106h-188 q6 -18 13 -48t14.5 -63t11.5 -64.5t2 -52.5q-2 -47 -10 -88t-27.5 -81t-55.5 -80.5t-93 -86.5l2 -2q63 33 105 31t87 -16q16 -4 29.5 -7t30.5 -3q23 0 47 9t55 31l68 -186q-45 -33 -87.5 -47t-85.5 -16q-29 0 -58.5 5t-61.5 15q-49 14 -82 22.5t-68 8.5q-33 0 -63.5 -9.5 t-61.5 -35.5l-71 182q106 57 144 134t38 151q0 23 -6 60.5t-15.5 79.5t-20.5 84t-20 73h-123z" />
<glyph unicode="&#xa4;" horiz-adv-x="860" d="M94 432l84 90q-35 49 -52 93t-20 106q-2 76 15.5 129t64.5 113l-92 92l45 49l97 -92q51 43 103 64.5t122 21.5q63 0 109 -16.5t98 -53.5l86 84l49 -49l-86 -86q49 -55 69.5 -110.5t20.5 -133.5q0 -63 -17.5 -110.5t-52.5 -98.5l80 -80l-51 -49l-76 76 q-53 -47 -105.5 -68.5t-123.5 -21.5q-74 0 -128 20.5t-110 69.5l-82 -80zM176 721q2 -57 24.5 -106.5t61.5 -86t89 -58t108 -21.5q57 0 107 22.5t88 60t60.5 89t22.5 108.5t-21.5 110.5t-59.5 93.5t-89 63.5t-108 23.5q-59 0 -112.5 -24.5t-91.5 -65.5t-59.5 -95.5 t-19.5 -113.5z" />
<glyph unicode="&#xa5;" horiz-adv-x="751" d="M2 1612h270l99 -574h4l106 574h271l-254 -907v-84h196v-86h-196v-140h196v-86h-196v-309h-258v309h-197v86h197v140h-197v86h197v84z" />
<glyph unicode="&#xa7;" horiz-adv-x="636" d="M6 758q0 84 33 152.5t96 109.5q-20 23 -36.5 45t-29 51t-19.5 67t-7 91q0 98 20.5 154.5t57.5 99.5q33 39 86 62.5t112 23.5q125 0 196 -75t71 -204v-129h-211v156q0 41 -16.5 56.5t-41.5 15.5q-53 0 -57 -70q-2 -35 -2 -55.5t2 -42.5q2 -25 11.5 -53.5t23.5 -45.5 q51 -68 121.5 -135t134.5 -153q43 -59 59.5 -110.5t14.5 -98.5q-2 -78 -32 -146.5t-93 -109.5q59 -59 79.5 -123t20.5 -141q0 -72 -14.5 -132.5t-48.5 -107.5q-84 -109 -220 -109q-129 0 -199.5 76t-70.5 209v154h213v-181q0 -41 16.5 -58t42.5 -17q25 0 40.5 20.5 t17.5 52.5q2 35 2 56.5t-2 44.5q-2 25 -12.5 55.5t-20.5 44.5q-27 33 -60.5 70t-70.5 73.5t-72 74.5t-61 75q-43 59 -58.5 106.5t-15.5 100.5zM201 811q0 -14 8 -35q29 -53 74 -106.5t118 -137.5q33 45 33 93q0 10 -2 18t-6 16q-29 53 -74 105.5t-119 136.5q-33 -45 -32 -90 z" />
<glyph unicode="&#xa8;" horiz-adv-x="743" d="M154 1511q0 35 25.5 60.5t60.5 25.5t60.5 -25.5t25.5 -60.5t-25.5 -60.5t-60.5 -25.5t-60.5 26t-25.5 60zM455 1511q0 35 25.5 60.5t60.5 25.5t60.5 -25.5t25.5 -60.5t-25.5 -60.5t-60.5 -25.5t-60.5 26t-25.5 60z" />
<glyph unicode="&#xa9;" horiz-adv-x="1355" d="M213 467q-6 113 34 215t112.5 180t172 123t211.5 45q109 0 203 -44t164 -116.5t108.5 -170t38.5 -205.5q0 -109 -40.5 -203t-109.5 -165t-163.5 -113t-200.5 -44t-199 36t-165 105.5t-116 158.5t-50 198zM258 473q4 -98 44 -183t106.5 -148.5t153.5 -98.5t186 -35 q98 0 184 40t149.5 105.5t100.5 154.5t37 188q0 100 -36 189t-99.5 156.5t-149.5 107.5t-186 42q-104 2 -195.5 -40t-158 -113.5t-103.5 -166t-33 -198.5zM453 481q0 72 23.5 129.5t64.5 98.5t93 63.5t111 22.5q31 0 63 -5.5t48 -11.5q10 -4 24.5 -9t26.5 -5q33 0 37 24h21 q4 -45 8 -101t6 -83q-12 -4 -21 -2q-8 29 -23 54.5t-38 48.5q-29 29 -63.5 45t-75.5 16q-29 0 -65 -13.5t-67.5 -45t-53 -85t-23.5 -135.5q-2 -115 54 -185.5t157 -65.5q49 2 95 18t97 57q4 4 11 4q10 0 10 -10q0 -8 -10 -18q-59 -51 -120 -72.5t-114 -21.5 q-59 0 -109.5 22.5t-87 62t-58 92t-21.5 111.5z" />
<glyph unicode="&#xaa;" horiz-adv-x="434" d="M29 698v66h366v-66h-366zM40 1074.5q1 66.5 5 125.5q4 39 25.5 60.5t54.5 37.5q39 20 79 43t40 52v104q0 35 -31 35q-16 0 -26.5 -10.5t-10.5 -26.5v-88l-127 -18v59q0 186 170 186q78 0 118 -31.5t40 -105.5v-653h-133v63q-14 -27 -37 -50t-70 -21q-51 2 -71.5 28.5 t-22.5 73.5q-4 70 -3 136.5zM176 987q0 -23 11.5 -31t23.5 -8t22.5 11.5t10.5 29.5v299q-2 -8 -16.5 -19.5t-24.5 -23.5q-10 -10 -17.5 -20.5t-7.5 -28.5z" />
<glyph unicode="&#xab;" horiz-adv-x="591" d="M39 672l100 327h162l-104 -327l104 -328h-162zM293 672l100 327h162l-104 -327l104 -328h-162z" />
<glyph unicode="&#xac;" horiz-adv-x="923" d="M76 739v74h776v-305h-68v231h-708z" />
<glyph unicode="&#xad;" horiz-adv-x="444" d="M47 565v209h350v-209h-350z" />
<glyph unicode="&#xae;" horiz-adv-x="1374" d="M229 463q-6 113 34 216t113 181t173 124t213 44q109 -2 203 -46t162.5 -117.5t107.5 -171t39 -206.5t-40 -203t-109.5 -164.5t-163 -111.5t-199.5 -43t-200.5 36t-166 104.5t-115.5 158.5t-51 199zM276 467q4 -98 44 -183t106 -147.5t153 -98.5t185 -36t184 40 t149.5 106.5t100.5 154.5t37 186q0 100 -36 189.5t-99.5 157t-149.5 108.5t-186 41q-104 0 -194.5 -42t-157 -112.5t-103.5 -165t-33 -198.5zM516 227v17q12 2 26.5 6t22.5 12t16.5 36t8.5 87v360q0 23 -4 30t-15 16q-6 4 -18 6t-25 4v20h246q43 0 83 -7t72 -24.5t51 -45 t24 -68.5q4 -63 -41 -106.5t-109 -53.5q45 -76 77 -125t52.5 -77.5t31.5 -42t17 -17.5q8 -6 15.5 -7t15.5 -3v-17h-127l-188 281h-56v-158q0 -86 21 -98q6 -4 14 -6t21 -2v-17h-232zM692 543h94q55 0 91 37.5t28 93.5q-8 51 -34.5 80.5t-73.5 33.5q-59 4 -80 -4t-25 -28 v-213z" />
<glyph unicode="&#xb0;" horiz-adv-x="550" d="M45 725q-2 49 15.5 94t49 79t74.5 53.5t92 19.5q47 0 87 -19.5t70 -52.5t47.5 -75t17.5 -87q0 -47 -17.5 -88t-47.5 -72.5t-70 -50t-87 -20.5t-88 14.5t-71.5 46t-50 70.5t-21.5 88zM92 729q4 -72 55.5 -123t124.5 -51q37 0 69 14.5t55.5 39t38 56t14.5 68.5t-13.5 72 t-38 60.5t-56.5 41t-69 15.5q-39 0 -72.5 -15.5t-58 -42t-38 -61.5t-11.5 -74z" />
<glyph unicode="&#xb1;" horiz-adv-x="753" d="M104 455v67h568v-67h-568zM104 858v68h246v264h74v-264h248v-68h-248v-256h-74v256h-246z" />
<glyph unicode="&#xb4;" d="M147 1468l322 246l100 -176l-370 -156z" />
<glyph unicode="&#xb5;" horiz-adv-x="1042" d="M123 -307q0 27 7 62.5t14.5 74.5t14.5 81t7 85v825h125v-508q0 -94 30.5 -158.5t102.5 -78.5q20 -6 41 -6q57 2 105 32.5t89 85.5v629h140v-667q0 -31 21.5 -69t68.5 -38q29 0 56.5 23.5t41.5 76.5q12 -4 19 -4q-16 -78 -69.5 -129t-119.5 -47q-20 0 -41 6 q-47 14 -75.5 51t-36.5 111q-47 -49 -95.5 -93t-117.5 -63q-29 -6 -52 -6q-55 0 -103 25.5t-79 60.5q-4 -37 3 -84t18.5 -95t21.5 -93t10 -80q0 -37 -16 -58.5t-59 -23.5q-41 -2 -56.5 17.5t-15.5 54.5z" />
<glyph unicode="&#xb6;" horiz-adv-x="968" d="M80 1294q2 63 28.5 121t67.5 102t94.5 70.5t108.5 26.5h500v-1794h-211v1722h-140v-1722h-153v1136q-61 4 -115.5 27t-95.5 66t-64.5 104t-19.5 141z" />
<glyph unicode="&#xb7;" horiz-adv-x="337" d="M47 629v264h246v-264h-246z" />
<glyph unicode="&#xb8;" horiz-adv-x="440" d="M70 -195q43 37 72.5 83t37.5 96h148q-10 -41 -49 -92.5t-70 -86.5h-139z" />
<glyph unicode="&#xba;" horiz-adv-x="430" d="M29 698v66h366v-66h-366zM43 1004v466q0 61 45 112.5t123 51.5t124 -39t46 -116v-471q0 -84 -46 -130.5t-124 -46.5t-123 40t-45 133zM178 985q0 -51 33 -51q35 0 35 51v492q0 51 -35 51q-33 0 -33 -51v-492z" />
<glyph unicode="&#xbb;" horiz-adv-x="591" d="M39 344l104 328l-104 327h164l98 -327l-98 -328h-164zM293 344l104 328l-104 327h164l98 -327l-98 -328h-164z" />
<glyph unicode="&#xbf;" d="M33 96v80q0 47 13 107.5t36 101.5q29 53 65.5 128t77.5 155q16 33 22.5 72.5t10.5 82.5l12 146h129v-305q0 -78 -34.5 -163.5t-75.5 -187.5q-16 -37 -20.5 -68.5t-4.5 -78.5v-70q0 -51 11.5 -81.5t46.5 -30.5t48 30.5t13 81.5v137h227v-133q0 -82 -24.5 -139t-66.5 -92 t-96 -51.5t-114 -16.5q-129 -2 -202.5 79t-73.5 216zM207 1081v262h246v-262h-246z" />
<glyph unicode="&#xc0;" horiz-adv-x="743" d="M4 0l199 1612h370l164 -1612h-264l-10 197h-182l-15 -197h-262zM147 1845l101 176l321 -245l-51 -86zM307 383h131l-49 993h-2z" />
<glyph unicode="&#xc1;" horiz-adv-x="741" d="M4 0l199 1612h370l164 -1612h-264l-10 197h-182l-15 -197h-262zM201 1780l321 245l101 -176l-371 -155zM307 383h131l-49 993h-2z" />
<glyph unicode="&#xc2;" horiz-adv-x="741" d="M4 0l199 1612h370l164 -1612h-264l-10 197h-182l-15 -197h-262zM68 1763l325 228l326 -228l-51 -86l-275 115l-274 -115zM307 383h131l-49 993h-2z" />
<glyph unicode="&#xc3;" horiz-adv-x="743" d="M4 0l199 1612h370l164 -1612h-264l-10 197h-182l-15 -197h-262zM137 1827q33 10 58.5 20.5t58.5 20.5q20 6 41 6q49 0 92 -19.5t80 -19.5q17 0 33 6q23 8 42 16.5t48 18.5l39 -150q-66 -27 -117 -38q-16 -4 -25 -5q-41 0 -83 21.5t-85 21.5q-10 0 -21 -2t-30 -10 q-25 -10 -42 -16t-50 -19zM307 383h131l-49 993h-2z" />
<glyph unicode="&#xc4;" horiz-adv-x="743" d="M4 0l199 1612h370l164 -1612h-264l-10 197h-182l-15 -197h-262zM154 1800q0 35 25.5 60.5t60.5 25.5t60.5 -25.5t25.5 -60.5t-25.5 -60.5t-60.5 -25.5t-60.5 25.5t-25.5 60.5zM307 383h131l-49 993h-2zM455 1800q0 35 25.5 60.5t60.5 25.5t60.5 -25.5t25.5 -60.5 t-25.5 -60.5t-60.5 -25.5t-60.5 25.5t-25.5 60.5z" />
<glyph unicode="&#xc5;" horiz-adv-x="743" d="M4 0l199 1612h370l164 -1612h-264l-10 197h-182l-15 -197h-262zM238 1825q0 55 40.5 96t96.5 41q55 0 96 -41t41 -96t-41 -96t-96 -41t-96 40.5t-41 96.5zM281 1825q0 -39 27.5 -66.5t66.5 -27.5t66.5 27.5t27.5 66.5t-27.5 66.5t-66.5 27.5t-66.5 -27.5t-27.5 -66.5z M307 383h131l-49 993h-2z" />
<glyph unicode="&#xc6;" horiz-adv-x="1081" d="M-41 0l344 1612h733v-213h-317v-408h317v-205h-317v-581h317v-205h-563v197h-219l-33 -197h-262zM297 383h168l2 993h-2z" />
<glyph unicode="&#xc7;" horiz-adv-x="749" d="M47 319v971q0 156 88 249t242 93q76 0 137 -15t104.5 -54t66 -105.5t22.5 -167.5v-213h-248v248q0 106 -78 107q-78 0 -78 -107v-1042q0 -106 78 -107q78 0 78 107v254h248v-218q0 -139 -72 -229t-199 -108q-10 -41 -49 -91.5t-70 -85.5h-139q43 37 73 83t38 96 q-57 8 -102.5 29.5t-76 61.5t-47 100.5t-16.5 143.5z" />
<glyph unicode="&#xc8;" horiz-adv-x="661" d="M47 0v1612h576v-213h-318v-408h318v-205h-318v-581h318v-205h-576zM102 1837l101 176l321 -246l-51 -86z" />
<glyph unicode="&#xc9;" horiz-adv-x="663" d="M47 0v1612h576v-213h-318v-408h318v-205h-318v-581h318v-205h-576zM147 1788l322 246l100 -176l-370 -156z" />
<glyph unicode="&#xca;" horiz-adv-x="661" d="M27 1763l325 228l326 -228l-51 -86l-275 115l-274 -115zM47 0v1612h576v-213h-318v-408h318v-205h-318v-581h318v-205h-576z" />
<glyph unicode="&#xcb;" horiz-adv-x="661" d="M47 0v1612h576v-213h-318v-408h318v-205h-318v-581h318v-205h-576zM104 1776q0 35 26 60.5t60 25.5q35 0 60.5 -26t25.5 -60q0 -35 -25.5 -60.5t-60.5 -25.5t-60.5 25.5t-25.5 60.5zM406 1776q0 35 25.5 60.5t60.5 25.5t60.5 -26t25.5 -60q0 -35 -25.5 -60.5t-60.5 -25.5 t-60.5 25.5t-25.5 60.5z" />
<glyph unicode="&#xcc;" horiz-adv-x="352" d="M-39 1837l100 176l322 -246l-51 -86zM47 0v1612h260v-1612h-260z" />
<glyph unicode="&#xcd;" horiz-adv-x="352" d="M-14 1780l321 245l101 -176l-371 -155zM47 0v1612h260v-1612h-260z" />
<glyph unicode="&#xce;" horiz-adv-x="352" d="M-147 1763l325 228l326 -228l-51 -86l-275 115l-274 -115zM47 0v1612h260v-1612h-260z" />
<glyph unicode="&#xcf;" horiz-adv-x="352" d="M-63 1776q0 35 25.5 60.5t60.5 25.5t60.5 -26t25.5 -60q0 -35 -25.5 -60.5t-60.5 -25.5t-60.5 25.5t-25.5 60.5zM47 0v1612h260v-1612h-260zM238 1776q0 35 25.5 60.5t60.5 25.5t60.5 -26t25.5 -60q0 -35 -25.5 -60.5t-60.5 -25.5t-60.5 25.5t-25.5 60.5z" />
<glyph unicode="&#xd1;" horiz-adv-x="743" d="M47 0v1612h221l176 -846h5v846h247v-1612h-229l-172 811h-4v-811h-244zM129 1860q33 10 58.5 20t58.5 21q20 6 41 6q49 0 92 -19.5t80 -19.5q17 0 33 6q23 8 42 16t48 19l39 -150q-66 -27 -117 -39q-16 -4 -25 -4q-41 0 -83 21.5t-85 21.5q-10 0 -21 -2t-30 -10 q-25 -10 -42 -16.5t-50 -18.5z" />
<glyph unicode="&#xd2;" horiz-adv-x="763" d="M47 319v971q0 156 90 249t244 93q78 0 140.5 -15t105.5 -54t66.5 -105.5t23.5 -167.5v-971q0 -154 -90 -248t-246 -94q-78 0 -139.5 16.5t-104.5 55.5t-66.5 104.5t-23.5 165.5zM172 1837l100 176l322 -246l-51 -86zM307 283q0 -106 78 -107q78 1 78 107v1042 q0 106 -78 107q-78 0 -78 -107v-1042z" />
<glyph unicode="&#xd3;" horiz-adv-x="763" d="M47 319v971q0 156 90 249t244 93q78 0 140.5 -15t105.5 -54t66.5 -105.5t23.5 -167.5v-971q0 -154 -90 -248t-246 -94q-78 0 -139.5 16.5t-104.5 55.5t-66.5 104.5t-23.5 165.5zM195 1780l321 245l100 -176l-370 -155zM307 283q0 -106 78 -107q78 1 78 107v1042 q0 106 -78 107q-78 0 -78 -107v-1042z" />
<glyph unicode="&#xd4;" horiz-adv-x="763" d="M47 319v971q0 156 90 249t244 93q78 0 140.5 -15t105.5 -54t66.5 -105.5t23.5 -167.5v-971q0 -154 -90 -248t-246 -94q-78 0 -139.5 16.5t-104.5 55.5t-66.5 104.5t-23.5 165.5zM68 1763l325 228l326 -228l-51 -86l-275 115l-274 -115zM307 283q0 -106 78 -107 q78 1 78 107v1042q0 106 -78 107q-78 0 -78 -107v-1042z" />
<glyph unicode="&#xd5;" horiz-adv-x="763" d="M47 319v971q0 156 90 249t244 93q78 0 140.5 -15t105.5 -54t66.5 -105.5t23.5 -167.5v-971q0 -154 -90 -248t-246 -94q-78 0 -139.5 16.5t-104.5 55.5t-66.5 104.5t-23.5 165.5zM137 1827q33 10 58.5 20.5t58.5 20.5q20 6 41 6q49 0 92 -19.5t80 -19.5q17 0 33 6 q23 8 42 16.5t48 18.5l39 -150q-66 -27 -117 -38q-16 -4 -25 -5q-41 0 -83 21.5t-85 21.5q-10 0 -21 -2t-30 -10q-25 -10 -42 -16t-50 -19zM307 283q0 -106 78 -107q78 1 78 107v1042q0 106 -78 107q-78 0 -78 -107v-1042z" />
<glyph unicode="&#xd6;" horiz-adv-x="761" d="M47 319v971q0 156 90 249t244 93q78 0 140.5 -15t105.5 -54t66.5 -105.5t23.5 -167.5v-971q0 -154 -90 -248t-246 -94q-78 0 -139.5 16.5t-104.5 55.5t-66.5 104.5t-23.5 165.5zM154 1812q0 35 25.5 60.5t60.5 25.5t60.5 -25.5t25.5 -60.5t-25.5 -60.5t-60.5 -25.5 t-60.5 26t-25.5 60zM307 283q0 -106 78 -107q78 1 78 107v1042q0 106 -78 107q-78 0 -78 -107v-1042zM455 1812q0 35 25.5 60.5t60.5 25.5t60.5 -25.5t25.5 -60.5t-25.5 -60.5t-60.5 -25.5t-60.5 26t-25.5 60z" />
<glyph unicode="&#xd8;" horiz-adv-x="763" d="M47 319v971q0 156 90 249t244 93q47 0 89 -5t77 -19l39 157h76l-50 -192q51 -39 78 -106.5t27 -176.5v-971q0 -154 -90 -248t-246 -94q-47 0 -87 5.5t-75 17.5l-37 -147h-76l46 182q-49 39 -77 107.5t-28 176.5zM307 283q0 -106 78 -107q78 0 78 107v690l-156 -623v-67z M307 653l156 621v51q0 106 -78 107q-78 0 -78 -107v-672z" />
<glyph unicode="&#xd9;" horiz-adv-x="751" d="M47 262v1350h254v-1348q0 -43 16.5 -68.5t59.5 -25.5q41 0 58.5 26.5t17.5 67.5v1348h252v-1336q0 -78 -25 -134t-68 -95t-102 -57.5t-129 -18.5q-158 0 -246 72t-88 219zM164 1837l100 176l322 -246l-51 -86z" />
<glyph unicode="&#xda;" horiz-adv-x="751" d="M47 262v1350h254v-1348q0 -43 16.5 -68.5t59.5 -25.5q41 0 58.5 26.5t17.5 67.5v1348h252v-1336q0 -78 -25 -134t-68 -95t-102 -57.5t-129 -18.5q-158 0 -246 72t-88 219zM201 1780l321 245l101 -176l-371 -155z" />
<glyph unicode="&#xdb;" horiz-adv-x="751" d="M47 262v1350h254v-1348q0 -43 16.5 -68.5t59.5 -25.5q41 0 58.5 26.5t17.5 67.5v1348h252v-1336q0 -78 -25 -134t-68 -95t-102 -57.5t-129 -18.5q-158 0 -246 72t-88 219zM59 1763l326 228l326 -228l-52 -86l-274 115l-274 -115z" />
<glyph unicode="&#xdc;" horiz-adv-x="749" d="M47 262v1350h254v-1348q0 -43 16.5 -68.5t59.5 -25.5q41 0 58.5 26.5t17.5 67.5v1348h252v-1336q0 -78 -25 -134t-68 -95t-102 -57.5t-129 -18.5q-158 0 -246 72t-88 219zM154 1794q0 35 25.5 60.5t60.5 25.5t60.5 -25.5t25.5 -60.5t-25.5 -60.5t-60.5 -25.5t-60.5 25.5 t-25.5 60.5zM455 1794q0 35 25.5 60.5t60.5 25.5t60.5 -25.5t25.5 -60.5t-25.5 -60.5t-60.5 -25.5t-60.5 25.5t-25.5 60.5z" />
<glyph unicode="&#xdf;" d="M47 0v1384q0 55 22.5 99.5t60.5 75t89 47t111 16.5q129 0 199.5 -63.5t70.5 -174.5v-118q0 -68 -38 -103t-91 -43q78 -4 106.5 -50t28.5 -118v-710q0 -74 -12 -122t-35.5 -76t-57.5 -39t-77 -13q-49 0 -107 6v184q55 -4 56 49v754q0 29 -13.5 39t-42.5 8v152 q33 -2 45.5 11t12.5 42v129q0 41 -8.5 62.5t-40.5 21.5q-35 0 -43.5 -24.5t-8.5 -61.5v-1364h-227z" />
<glyph unicode="&#xe0;" d="M37 385.5q0 108.5 8 208.5q4 66 41 101.5t90 64.5q33 16 68 33.5t64.5 37t48 40t18.5 44.5v175q0 57 -49 57q-27 0 -44.5 -16.5t-17.5 -43.5l-2 -147l-211 -31v99q0 160 68.5 235.5t216.5 75.5q127 0 194.5 -53t67.5 -176v-1090h-221v106h-2q-12 -23 -25.5 -44t-34 -37.5 t-49 -26.5t-69.5 -10q-86 2 -119 48t-37 124q-4 117 -4 225.5zM80 1563l100 176l322 -246l-51 -86zM264 240q0 -39 17.5 -51.5t37.5 -12.5q23 0 39.5 18.5t16.5 49.5v497q-2 -12 -25.5 -31.5t-42.5 -37.5q-18 -18 -29.5 -38t-11.5 -46z" />
<glyph unicode="&#xe1;" d="M37 385.5q0 108.5 8 208.5q4 66 41 101.5t90 64.5q33 16 68 33.5t64.5 37t48 40t18.5 44.5v175q0 57 -49 57q-27 0 -44.5 -16.5t-17.5 -43.5l-2 -147l-211 -31v99q0 160 68.5 235.5t216.5 75.5q127 0 194.5 -53t67.5 -176v-1090h-221v106h-2q-12 -23 -25.5 -44t-34 -37.5 t-49 -26.5t-69.5 -10q-86 2 -119 48t-37 124q-4 117 -4 225.5zM147 1493l322 246l100 -176l-370 -156zM264 240q0 -39 17.5 -51.5t37.5 -12.5q23 0 39.5 18.5t16.5 49.5v497q-2 -12 -25.5 -31.5t-42.5 -37.5q-18 -18 -29.5 -38t-11.5 -46z" />
<glyph unicode="&#xe2;" d="M37 385.5q0 108.5 8 208.5q4 66 41 101.5t90 64.5q33 16 68 33.5t64.5 37t48 40t18.5 44.5v175q0 57 -49 57q-27 0 -44.5 -16.5t-17.5 -43.5l-2 -147l-211 -31v99q0 160 68.5 235.5t216.5 75.5q127 0 194.5 -53t67.5 -176v-1090h-221v106h-2q-12 -23 -25.5 -44t-34 -37.5 t-49 -26.5t-69.5 -10q-86 2 -119 48t-37 124q-4 117 -4 225.5zM37 1470l325 228l326 -228l-51 -86l-275 115l-274 -115zM264 240q0 -39 17.5 -51.5t37.5 -12.5q23 0 39.5 18.5t16.5 49.5v497q-2 -12 -25.5 -31.5t-42.5 -37.5q-18 -18 -29.5 -38t-11.5 -46z" />
<glyph unicode="&#xe3;" horiz-adv-x="663" d="M37 385.5q0 108.5 8 208.5q4 66 41 101.5t90 64.5q33 16 68 33.5t64.5 37t48 40t18.5 44.5v175q0 57 -49 57q-27 0 -44.5 -16.5t-17.5 -43.5l-2 -147l-211 -31v99q0 160 68.5 235.5t216.5 75.5q127 0 194.5 -53t67.5 -176v-1090h-221v106h-2q-12 -23 -25.5 -44t-34 -37.5 t-49 -26.5t-69.5 -10q-86 2 -119 48t-37 124q-4 117 -4 225.5zM98 1577q33 10 58.5 20.5t58.5 20.5q20 6 41 6q49 0 92 -19.5t80 -19.5q17 0 33 6q23 8 42 16.5t48 18.5l39 -149q-66 -27 -117 -39q-16 -4 -24 -4q-41 0 -83 21.5t-85 21.5q-10 0 -21.5 -2t-30.5 -11 q-25 -10 -42 -16t-50 -18zM264 240q0 -39 17.5 -51.5t37.5 -12.5q23 0 39.5 18.5t16.5 49.5v497q-2 -12 -25.5 -31.5t-42.5 -37.5q-18 -18 -29.5 -38t-11.5 -46z" />
<glyph unicode="&#xe4;" horiz-adv-x="663" d="M37 385.5q0 108.5 8 208.5q4 66 41 101.5t90 64.5q33 16 68 33.5t64.5 37t48 40t18.5 44.5v175q0 57 -49 57q-27 0 -44.5 -16.5t-17.5 -43.5l-2 -147l-211 -31v99q0 160 68.5 235.5t216.5 75.5q127 0 194.5 -53t67.5 -176v-1090h-221v106h-2q-12 -23 -25.5 -44t-34 -37.5 t-49 -26.5t-69.5 -10q-86 2 -119 48t-37 124q-4 117 -4 225.5zM92 1511q0 35 25.5 60.5t60.5 25.5t60.5 -25.5t25.5 -60.5t-25.5 -60.5t-60.5 -25.5t-60.5 26t-25.5 60zM264 240q0 -39 17.5 -51.5t37.5 -12.5q23 0 39.5 18.5t16.5 49.5v497q-2 -12 -25.5 -31.5t-42.5 -37.5 q-18 -18 -29.5 -38t-11.5 -46zM393 1511q0 35 25.5 60.5t60.5 25.5t60.5 -25.5t25.5 -60.5t-25.5 -60.5t-60.5 -25.5t-60.5 26t-25.5 60z" />
<glyph unicode="&#xe5;" horiz-adv-x="649" d="M37 385.5q0 108.5 8 208.5q4 66 41 101.5t90 64.5q33 16 68 33.5t64.5 37t48 40t18.5 44.5v175q0 57 -49 57q-27 0 -44.5 -16.5t-17.5 -43.5l-2 -147l-211 -31v99q0 160 68.5 235.5t216.5 75.5q127 0 194.5 -53t67.5 -176v-1090h-221v106h-2q-12 -23 -25.5 -44t-34 -37.5 t-49 -26.5t-69.5 -10q-86 2 -119 48t-37 124q-4 117 -4 225.5zM190 1505q0 55 41 96t97 41q55 0 96 -40.5t41 -96.5q0 -55 -41 -96t-96 -41t-96.5 41t-41.5 96zM233 1505q0 -39 28 -66.5t67 -27.5t66.5 27.5t27.5 66.5t-27.5 66.5t-66.5 27.5t-67 -27.5t-28 -66.5zM264 240 q0 -39 17.5 -51.5t37.5 -12.5q23 0 39.5 18.5t16.5 49.5v497q-2 -12 -25.5 -31.5t-42.5 -37.5q-18 -18 -29.5 -38t-11.5 -46z" />
<glyph unicode="&#xe6;" horiz-adv-x="976" d="M39 385.5q-2 108.5 6 208.5q4 66 41 102.5t90 63.5q31 14 63.5 30.5t60.5 34t47.5 36t25.5 40.5v191q0 55 -47 55q-27 0 -44.5 -16.5t-17.5 -43.5l-2 -147l-211 -31v99q0 160 68.5 235.5t216.5 75.5q109 0 172 -39q59 33 141 33q131 0 207 -61.5t76 -194.5v-422h-334 v-434q0 -27 15.5 -38t37.5 -11q59 0 60 86v196h221v-160q0 -139 -70.5 -218t-212.5 -79q-82 0 -135 23h-137v106h-2q-12 -23 -25.5 -43t-34 -37.5t-49 -27.5t-69.5 -10q-86 0 -121 47t-35 125q0 117 -2 225.5zM264 240q0 -39 17.5 -51.5t37.5 -12.5q18 0 36 14.5t18 38.5 v504q-8 -12 -28.5 -28.5t-37.5 -32.5q-18 -18 -29.5 -36t-11.5 -48zM598 799h113v258q0 43 -10.5 62.5t-45.5 19.5q-57 0 -57 -54v-286z" />
<glyph unicode="&#xe7;" horiz-adv-x="657" d="M47 270v779q0 51 19.5 99t55.5 86t88 61.5t118 23.5q131 0 206.5 -63.5t75.5 -194.5v-193h-225v189q0 47 -12.5 67.5t-42.5 20.5q-59 0 -60 -88v-817q0 -88 56 -88q59 0 59 86v235h225v-199q0 -121 -57 -194.5t-162 -89.5q0 -49 -33.5 -104.5t-72.5 -98.5h-140 q47 41 80 93t33 110q-98 16 -154.5 80.5t-56.5 199.5z" />
<glyph unicode="&#xe8;" d="M47 264v780q0 115 73 192t204 77t206.5 -61.5t75.5 -194.5v-422h-336v-406q0 -78 56 -77q59 0 59 86v196h221v-160q0 -139 -70.5 -218t-211.5 -79q-131 0 -204 66t-73 221zM123 1556l100 177l322 -246l-51 -86zM270 799h115v258q0 43 -10 62.5t-45 19.5q-59 0 -60 -82 v-258z" />
<glyph unicode="&#xe9;" d="M47 264v780q0 115 73 192t204 77t206.5 -61.5t75.5 -194.5v-422h-336v-406q0 -78 56 -77q59 0 59 86v196h221v-160q0 -139 -70.5 -218t-211.5 -79q-131 0 -204 66t-73 221zM147 1481l322 245l100 -176l-370 -155zM270 799h115v258q0 43 -10 62.5t-45 19.5q-59 0 -60 -82 v-258z" />
<glyph unicode="&#xea;" d="M47 264v780q0 115 73 192t204 77t206.5 -61.5t75.5 -194.5v-422h-336v-406q0 -78 56 -77q59 0 59 86v196h221v-160q0 -139 -70.5 -218t-211.5 -79q-131 0 -204 66t-73 221zM47 1477l326 227l325 -227l-51 -86l-274 114l-275 -114zM270 799h115v258q0 43 -10 62.5 t-45 19.5q-59 0 -60 -82v-258z" />
<glyph unicode="&#xeb;" d="M47 264v780q0 115 73 192t204 77t206.5 -61.5t75.5 -194.5v-422h-336v-406q0 -78 56 -77q59 0 59 86v196h221v-160q0 -139 -70.5 -218t-211.5 -79q-131 0 -204 66t-73 221zM98 1511q0 35 26 60.5t60 25.5q35 0 60.5 -25.5t25.5 -60.5t-25.5 -60.5t-60.5 -25.5t-60.5 26 t-25.5 60zM270 799h115v258q0 43 -10 62.5t-45 19.5q-59 0 -60 -82v-258zM399 1511q0 35 26 60.5t60 25.5q35 0 60.5 -25.5t25.5 -60.5t-25.5 -60.5t-60.5 -25.5t-60.5 26t-25.5 60z" />
<glyph unicode="&#xec;" horiz-adv-x="319" d="M-70 1540l101 176l321 -246l-51 -86zM47 0v1290h225v-1290h-225z" />
<glyph unicode="&#xed;" horiz-adv-x="319" d="M-41 1495l322 246l100 -176l-371 -156zM47 0v1290h225v-1290h-225z" />
<glyph unicode="&#xee;" horiz-adv-x="319" d="M-166 1475l326 227l325 -227l-51 -86l-274 114l-275 -114zM47 0v1290h225v-1290h-225z" />
<glyph unicode="&#xef;" horiz-adv-x="319" d="M-78 1511q0 35 25.5 60.5t60.5 25.5t60.5 -25.5t25.5 -60.5t-25.5 -60.5t-60.5 -25.5t-60.5 26t-25.5 60zM47 0v1290h225v-1290h-225zM223 1511q0 35 25.5 60.5t60.5 25.5t60.5 -25.5t25.5 -60.5t-25.5 -60.5t-60.5 -25.5t-60.5 26t-25.5 60z" />
<glyph unicode="&#xf1;" horiz-adv-x="645" d="M47 0v1292h223v-114h4q29 61 66 98t102 37q86 0 121 -44.5t35 -146.5v-1122h-223v1040q0 41 -13.5 56.5t-35.5 15.5q-29 0 -42.5 -22.5t-13.5 -57.5v-1032h-223zM80 1583q33 10 58.5 20.5t58.5 20.5q20 6 41 6q49 0 92 -19.5t80 -19.5q16 0 32 6q23 8 42.5 16.5 t47.5 18.5l39 -149q-66 -27 -116 -39q-16 -4 -25 -4q-41 0 -83 21.5t-85 21.5q-10 0 -21.5 -2t-29.5 -11q-25 -10 -42 -16t-50 -18z" />
<glyph unicode="&#xf2;" horiz-adv-x="657" d="M47 270v779q0 51 19.5 99t55.5 86t88 61.5t118 23.5q131 0 206.5 -63.5t75.5 -194.5v-787q0 -139 -75.5 -214.5t-206.5 -75.5t-206 65.5t-75 220.5zM111 1569l100 176l321 -246l-51 -86zM270 240q0 -88 56 -88q59 0 59 86v819q0 86 -59 86q-55 0 -56 -86v-817z" />
<glyph unicode="&#xf3;" horiz-adv-x="657" d="M47 270v779q0 51 19.5 99t55.5 86t88 61.5t118 23.5q131 0 206.5 -63.5t75.5 -194.5v-787q0 -139 -75.5 -214.5t-206.5 -75.5t-206 65.5t-75 220.5zM154 1487l321 246l100 -177l-370 -155zM270 240q0 -88 56 -88q59 0 59 86v819q0 86 -59 86q-55 0 -56 -86v-817z" />
<glyph unicode="&#xf4;" horiz-adv-x="657" d="M47 270v779q0 51 19.5 99t55.5 86t88 61.5t118 23.5q131 0 206.5 -63.5t75.5 -194.5v-787q0 -139 -75.5 -214.5t-206.5 -75.5t-206 65.5t-75 220.5zM47 1470l326 228l325 -228l-51 -86l-274 115l-275 -115zM270 240q0 -88 56 -88q59 0 59 86v819q0 86 -59 86 q-55 0 -56 -86v-817z" />
<glyph unicode="&#xf5;" horiz-adv-x="657" d="M47 270v779q0 51 19.5 99t55.5 86t88 61.5t118 23.5q131 0 206.5 -63.5t75.5 -194.5v-787q0 -139 -75.5 -214.5t-206.5 -75.5t-206 65.5t-75 220.5zM80 1583q33 10 58.5 20.5t58.5 20.5q20 6 41 6q49 0 92 -19.5t80 -19.5q16 0 32 6q23 8 42.5 16.5t47.5 18.5l39 -149 q-66 -27 -116 -39q-16 -4 -25 -4q-41 0 -83 21.5t-85 21.5q-10 0 -21.5 -2t-29.5 -11q-25 -10 -42 -16t-50 -18zM270 240q0 -88 56 -88q59 0 59 86v819q0 86 -59 86q-55 0 -56 -86v-817z" />
<glyph unicode="&#xf6;" horiz-adv-x="657" d="M47 270v779q0 51 19.5 99t55.5 86t88 61.5t118 23.5q131 0 206.5 -63.5t75.5 -194.5v-787q0 -139 -75.5 -214.5t-206.5 -75.5t-206 65.5t-75 220.5zM104 1511q0 35 26 60.5t60 25.5q35 0 60.5 -25.5t25.5 -60.5t-25.5 -60.5t-60.5 -25.5t-60.5 26t-25.5 60zM270 240 q0 -88 56 -88q59 0 59 86v819q0 86 -59 86q-55 0 -56 -86v-817zM406 1511q0 35 25.5 60.5t60.5 25.5t60.5 -25.5t25.5 -60.5t-25.5 -60.5t-60.5 -25.5t-60.5 26t-25.5 60z" />
<glyph unicode="&#xf7;" horiz-adv-x="802" d="M82 733v68h641v-68h-641zM340 582q0 27 16.5 47t42.5 20q27 0 46.5 -18.5t19.5 -44.5q0 -27 -19.5 -45.5t-46.5 -18.5q-25 0 -42 17.5t-17 42.5zM340 942q-2 27 15.5 47.5t43.5 20.5q27 0 46.5 -18.5t19.5 -45.5t-19.5 -44t-46.5 -17q-25 0 -41 16.5t-18 40.5z" />
<glyph unicode="&#xf8;" horiz-adv-x="655" d="M47 270v779q0 51 19.5 99t55.5 86t88 61.5t118 23.5q78 0 131 -21l28 111h70l-37 -143q90 -68 90 -205v-787q0 -139 -75.5 -214.5t-206.5 -75.5q-72 0 -127 18l-37 -143h-70l45 176q-45 35 -68.5 92t-23.5 143zM270 240q0 -88 56 -88q59 0 59 86v493l-115 -452v-39z M270 553l115 453v51q0 86 -59 86q-55 0 -56 -86v-504z" />
<glyph unicode="&#xf9;" horiz-adv-x="657" d="M47 168v1122h223v-1044q0 -41 15.5 -56.5t38.5 -15.5q27 0 39 24.5t12 59.5v1032h221v-1292h-221v104h-2q-23 -57 -64 -87.5t-94 -30.5q-86 0 -127 42t-41 142zM80 1538l100 176l322 -246l-51 -86z" />
<glyph unicode="&#xfa;" horiz-adv-x="657" d="M47 168v1122h223v-1044q0 -41 15.5 -56.5t38.5 -15.5q27 0 39 24.5t12 59.5v1032h221v-1292h-221v104h-2q-23 -57 -64 -87.5t-94 -30.5q-86 0 -127 42t-41 142zM129 1468l322 246l100 -176l-371 -156z" />
<glyph unicode="&#xfb;" horiz-adv-x="645" d="M47 168v1122h223v-1044q0 -41 15.5 -56.5t38.5 -15.5q27 0 39 24.5t12 59.5v1032h221v-1292h-221v104h-2q-23 -57 -64 -87.5t-94 -30.5q-86 0 -127 42t-41 142zM47 1477l326 227l325 -227l-51 -86l-274 114l-275 -114z" />
<glyph unicode="&#xfc;" horiz-adv-x="645" d="M43 168v1122h223v-1044q0 -41 15.5 -56.5t37.5 -15.5q27 0 39.5 24.5t12.5 59.5v1032h221v-1292h-221v104h-2q-23 -57 -64 -87.5t-94 -30.5q-86 0 -127 42t-41 142zM88 1505q0 35 25.5 60.5t60.5 25.5t60.5 -25.5t25.5 -60.5t-25.5 -60.5t-60.5 -25.5t-60.5 25.5 t-25.5 60.5zM389 1505q0 35 25.5 60.5t60.5 25.5t60.5 -25.5t25.5 -60.5t-25.5 -60.5t-60.5 -25.5t-60.5 25.5t-25.5 60.5z" />
<glyph unicode="&#xff;" horiz-adv-x="645" d="M4 1290h236l71 -872h2l84 872h228l-230 -1364q-10 -68 -54 -101.5t-136 -33.5h-117v180h35q49 0 63.5 21.5t10.5 44.5zM92 1511q0 35 25.5 60.5t60.5 25.5t60.5 -25.5t25.5 -60.5t-25.5 -60.5t-60.5 -25.5t-60.5 26t-25.5 60zM393 1511q0 35 25.5 60.5t60.5 25.5 t60.5 -25.5t25.5 -60.5t-25.5 -60.5t-60.5 -25.5t-60.5 26t-25.5 60z" />
<glyph unicode="&#x152;" horiz-adv-x="1069" d="M47 319v971q0 156 90 249t244 93q92 0 156 -20h497v-213h-317v-408h317v-205h-317v-581h317v-205h-520q-61 -23 -133 -23q-78 0 -139.5 16.5t-104.5 55.5t-66.5 104.5t-23.5 165.5zM307 283q0 -106 78 -107q78 0 78 107v737v305q0 106 -78 107q-78 0 -78 -107v-1042z" />
<glyph unicode="&#x153;" horiz-adv-x="989" d="M47 270v779q0 51 19.5 99t55.5 86t88 61.5t118 23.5q113 0 182 -45q66 39 154 39q131 0 206.5 -61.5t75.5 -194.5v-422h-336v-406q0 -78 56 -77q59 0 59 86v196h221v-160q0 -139 -70.5 -218t-211.5 -79q-109 0 -179 46q-68 -39 -157 -39q-131 0 -206 65.5t-75 220.5z M270 240q0 -88 56 -88q59 0 59 86v819q0 86 -59 86q-55 0 -56 -86v-817zM610 799h115v258q0 43 -10 62.5t-45 19.5q-59 0 -60 -82v-258z" />
<glyph unicode="&#x178;" horiz-adv-x="751" d="M2 1612h270l99 -574h4l106 574h271l-254 -907v-705h-258v705zM139 1772q0 35 25.5 60.5t60.5 25.5t60.5 -26t25.5 -60q0 -35 -25.5 -60.5t-60.5 -25.5t-60.5 25.5t-25.5 60.5zM440 1772q0 35 26 60.5t60 25.5q35 0 60.5 -26t25.5 -60q0 -35 -25.5 -60.5t-60.5 -25.5 t-60.5 25.5t-25.5 60.5z" />
<glyph unicode="&#x2c6;" horiz-adv-x="663" d="M6 1470l326 228l325 -228l-51 -86l-274 115l-275 -115z" />
<glyph unicode="&#x2dc;" horiz-adv-x="743" d="M129 1583q33 10 58.5 20.5t58.5 20.5q20 6 41 6q49 0 92 -19.5t80 -19.5q17 0 33 6q23 8 42 16.5t48 18.5l39 -149q-66 -27 -117 -39q-16 -4 -25 -4q-41 0 -83 21.5t-85 21.5q-10 0 -21 -2t-30 -11q-25 -10 -42 -16t-50 -18z" />
<glyph unicode="&#x2000;" horiz-adv-x="1017" />
<glyph unicode="&#x2001;" horiz-adv-x="2034" />
<glyph unicode="&#x2002;" horiz-adv-x="1017" />
<glyph unicode="&#x2003;" horiz-adv-x="2034" />
<glyph unicode="&#x2004;" horiz-adv-x="678" />
<glyph unicode="&#x2005;" horiz-adv-x="508" />
<glyph unicode="&#x2006;" horiz-adv-x="339" />
<glyph unicode="&#x2007;" horiz-adv-x="339" />
<glyph unicode="&#x2008;" horiz-adv-x="254" />
<glyph unicode="&#x2009;" horiz-adv-x="406" />
<glyph unicode="&#x200a;" horiz-adv-x="113" />
<glyph unicode="&#x2010;" horiz-adv-x="444" d="M47 565v209h350v-209h-350z" />
<glyph unicode="&#x2011;" horiz-adv-x="444" d="M47 565v209h350v-209h-350z" />
<glyph unicode="&#x2012;" horiz-adv-x="444" d="M47 565v209h350v-209h-350z" />
<glyph unicode="&#x2013;" horiz-adv-x="780" d="M47 575v191h686v-191h-686z" />
<glyph unicode="&#x2014;" horiz-adv-x="1198" d="M47 575v191h1104v-191h-1104z" />
<glyph unicode="&#x2018;" horiz-adv-x="331" d="M47 1141v241q0 59 27.5 120t72.5 110h140q-49 -43 -81 -96.5t-32 -110.5h119v-264h-246z" />
<glyph unicode="&#x2019;" horiz-adv-x="331" d="M39 1348v264h246v-242q0 -61 -28 -120.5t-75 -108.5h-137q47 43 80 96t33 111h-119z" />
<glyph unicode="&#x201a;" horiz-adv-x="331" d="M39 0v264h246v-241q0 -61 -28 -121t-75 -109h-137q47 43 80 96.5t33 110.5h-119z" />
<glyph unicode="&#x201c;" horiz-adv-x="647" d="M47 1141v241q0 59 27.5 120t72.5 110h140q-49 -43 -81 -96.5t-32 -110.5h119v-264h-246zM362 1141v241q0 59 28 120t73 110h139q-49 -43 -81 -96.5t-32 -110.5h119v-264h-246z" />
<glyph unicode="&#x201d;" horiz-adv-x="647" d="M39 1348v264h246v-242q0 -61 -28 -120.5t-75 -108.5h-137q47 43 80 96t33 111h-119zM354 1348v264h246v-242q0 -61 -27.5 -120.5t-72.5 -108.5h-140q49 43 81 96t32 111h-119z" />
<glyph unicode="&#x201e;" horiz-adv-x="647" d="M39 0v264h246v-241q0 -61 -28 -121t-75 -109h-137q47 43 80 96.5t33 110.5h-119zM354 0v264h246v-241q0 -61 -27.5 -121t-72.5 -109h-140q49 43 81 96.5t32 110.5h-119z" />
<glyph unicode="&#x2022;" horiz-adv-x="366" d="M39 782q0 61 42 103.5t101 42.5q61 0 103.5 -43t42.5 -103q0 -59 -42 -102t-104 -43q-59 0 -101 43t-42 102z" />
<glyph unicode="&#x2026;" horiz-adv-x="1019" d="M47 0v264h246v-264h-246zM387 0v264h246v-264h-246zM727 0v264h246v-264h-246z" />
<glyph unicode="&#x202f;" horiz-adv-x="406" />
<glyph unicode="&#x2039;" horiz-adv-x="335" d="M39 672l100 327h162l-104 -327l104 -328h-162z" />
<glyph unicode="&#x203a;" horiz-adv-x="335" d="M39 344l104 328l-104 327h164l98 -327l-98 -328h-164z" />
<glyph unicode="&#x205f;" horiz-adv-x="508" />
<glyph unicode="&#x2122;" horiz-adv-x="1245" d="M125 1188v102h362v-102h-12q-4 23 -12 41t-23 26q-23 14 -49 15.5t-51 -2.5v-357q0 -10 6 -20t16 -14q16 -8 33 -5v-10h-182v10q20 -4 39 7q18 10 18 32v357q-27 4 -52 3t-46 -16q-18 -14 -26.5 -29.5t-12.5 -37.5h-8zM537 1278v12h125l151 -334l158 334h121v-12 q-10 0 -22.5 -1t-18.5 -7q-18 -14 -19 -33v-326q0 -10 5 -17t10 -11q4 -6 17 -10.5t23 -0.5v-10h-174v10q27 -8 43 13q4 4 7.5 10t3.5 16v308l-166 -363h-13l-170 363v-308q0 -18 17 -32q4 -4 15.5 -7.5t21.5 0.5v-10h-129v10q10 -4 22.5 0.5t16.5 8.5q14 14 14 30v326 q0 20 -16 33q-16 12 -43 8z" />
<glyph unicode="&#x25fc;" horiz-adv-x="1290" d="M0 0v1290h1290v-1290h-1290z" />
</font>
</defs>
</svg>
